#TITLE:Flak's Theme;
#SUBTITLE:Advance Wars 2;
#ARTIST:Intelligent Systems;
#TITLETRANSLIT:;
#SUBTITLETRANSLIT:;
#ARTISTTRANSLIT:;
#CREDIT:;
#BANNER:Flak's Theme-bn.jpg;
#BACKGROUND:Flak's Theme-bg.jpg;
#LYRICSPATH:;
#CDTITLE:!danceguyTitle.png;
#MUSIC:Flak's Theme.mp3;
#OFFSET:-0.141;
#SAMPLESTART:60.302;
#SAMPLELENGTH:12.000;
#SELECTABLE:YES;
#BPMS:0.000=99.460;
#STOPS:;
#BGCHANGES:;
// cache tags:
#FIRSTBEAT:0.000;
#LASTBEAT:114.000;
#SONGFILENAME:Songs/Music V.I.P ^_^/Flak's Theme (dAnceguy117)/Flak's Theme.sm;
#HASMUSIC:1;
#HASBANNER:1;
#MUSICLENGTH:75.911;
// end cache tags

//---------------dance-single - heavy----------------
#NOTES:
     dance-single:
     heavy:
     Hard:
     11:
     1.000,1.000,0.896,0.184,1.000,555.000,68.000,14.000,0.000,2.000:
0001
0000
0100
0000
0001
0000
1000
0000
0001
0000
0100
0000
0001
0000
1000
0000
0001
0000
0100
0001
1000
0000
0001
0000
0100
0000
0001
0000
1000
0000
0010
0000
,
0100
0000
0001
0000
1000
0000
0001
0000
0100
0000
0001
0000
1000
0000
0001
0000
0100
0000
0001
1000
0010
0000
1000
0000
0001
0010
0100
1000
0010
0100
0001
0000
,
1000
0000
0001
0000
0100
0000
0001
0000
1000
0000
0001
0000
0100
0000
0001
0000
1000
0000
0001
1000
0010
0000
0100
0000
0001
0000
1000
0000
0001
0000
0010
0000
,
0001
0000
0100
0000
0001
0000
1000
0000
0001
0000
0100
0000
0001
0000
1000
0000
0001
0000
1000
0001
0010
0000
0001
0000
1000
0010
1000
0010
0100
0001
0100
0001
,
1100
0000
1100
0000
0000
0000
1100
0000
0000
0000
1100
0000
0000
0000
0001
0000
1000
0000
0001
1000
0010
0000
0100
0000
0001
0000
1000
0000
0001
0000
0100
0000
,
0011
0000
0011
0000
0000
0000
0011
0000
0000
0000
0011
0000
0000
0000
0100
0000
0001
0000
1000
0000
0100
0000
1000
0000
0001
0010
0100
0000
1000
0000
0010
0000
,
0101
0000
0101
0000
0000
0000
0101
0000
0000
0000
0101
0000
0000
0000
0001
0000
1000
0000
0001
1000
0010
0000
0100
0000
0001
0000
0010
0000
0001
0000
1000
0000
,
0110
0000
0110
0000
0000
0000
0110
0000
0000
0000
0110
0000
0000
0000
0110
0000
0000
0000
1000
0001
0010
0000
0100
0000
1000
0000
0010
0000
1000
0001
0000
0000
,
0110
0000
1000
0000
0000
0000
0001
0000
0000
0000
0010
0000
0000
0000
0100
0000
1000
0000
0000
0000
0010
0000
0100
0000
0010
1000
0100
0000
0000
0000
0010
0001
,
1000
0000
0010
0000
0000
0000
0100
0000
0000
0000
0001
0000
0000
0000
0010
0000
0100
0000
0000
0000
0100
0000
1000
0000
0010
1000
0001
0000
0000
0000
0001
0100
,
0001
0000
0010
0000
0000
0000
0100
0000
0000
0000
0010
0000
0000
0000
0001
0000
1000
0000
0000
0000
0010
0000
0100
0000
0010
1000
0100
0000
0000
0000
0010
0001
,
1000
0001
0000
0100
0000
0010
0000
1000
0001
0001
0001
1010
0001
0220
0000
0330
,
0011
1000
0001
0000
0000
0000
0010
0000
1001
0000
0100
0000
0000
0000
1000
0000
0110
0000
0000
0000
0010
0000
1000
0000
0101
0010
0100
0000
0000
0000
0100
0000
,
1010
0000
0001
0000
0000
0000
0001
0000
0110
0000
1000
0000
0000
0000
0100
0000
1001
0000
0000
0000
0001
0000
0010
0000
1100
0001
0020
0000
0030
0000
0020
0000
,
1031
0000
0100
0000
0000
0000
0010
0000
0101
0000
1000
0000
0000
0000
0001
0000
1100
0000
0000
0000
0001
0000
1000
0000
0101
1000
0001
0000
0000
0000
0100
0000
,
0011
0000
1000
0000
0000
0000
0100
0000
1001
0000
0010
0000
0000
0000
0001
0000
1010
0000
0000
0000
0001
0000
1000
0000
0110
1000
0010
0000
0000
0000
1000
0000
,
0001
0010
0100
0000
1000
0000
0010
0100
0001
0000
1000
0000
0100
0000
0020
0000
0031
0000
0100
0000
0010
0000
1000
0000
0001
0010
0100
1000
0010
0100
0001
0010
,
0100
1000
0001
0100
0010
1000
0100
0010
0100
1000
0010
0100
0001
0010
0100
1000
0001
0100
0010
0100
0001
1000
0001
1000
0010
0100
0001
0100
0010
1000
0001
0100
,
0001
0100
0010
0100
0010
0100
0010
1000
0010
1000
0001
1000
0001
1000
0100
0010
0001
1000
0010
0100
0001
0010
0100
1000
0010
0100
0001
1000
0010
0100
0001
1000
,
0100
0010
0001
0100
0010
1000
0100
0010
0001
0100
0010
0100
0001
0010
0100
1000
0001
1000
0010
0100
0001
1000
0100
0010
0001
1000
0001
0100
0010
1000
0010
0100
,
0010
0000
0100
0000
0001
0000
1000
0000
0001
0000
1000
0000
0010
0000
1000
0000
0010
0100
0000
0000
0001
0000
0000
0000
0010
0100
0000
0000
0001
0000
0000
0000
1000
0000
0001
0000
0010
0000
0100
0000
1000
0000
0100
0000
0010
0000
0001
0000
1000
0000
0010
0000
0100
0000
0010
0000
1000
0000
0001
0000
0010
0000
0100
0000
,
1000
0010
0100
0001
1000
0010
1000
0001
0100
0010
1000
0100
0020
0230
0320
0230
1300
0001
0100
0010
1000
0100
0010
0001
1000
0100
0010
0100
1000
0001
0010
0100
,
0010
0100
1000
0010
1000
0010
0100
0001
0100
0001
0010
0100
0010
0100
1000
0001
0100
0010
1000
0100
0010
0001
1000
0010
0100
0001
0010
0001
0100
0010
1000
0001
,
0100
0001
0010
0100
1000
0010
0100
0001
1000
0100
0010
0001
2000
3020
2030
3020
0130
0001
1000
0100
0010
0001
1000
0010
0100
0010
1000
0010
0100
0001
1010
0000
,
1010
0000
1010
0000
1010
0000
0000
0000
1010
0000
1010
0000
0001
1000
0001
1000
0100
0000
1001
0000
0010
0100
0001
1000
0011
0000
0100
0000
0000
0000
0110
0000
,
0001
0000
1010
0000
0010
0100
0001
0010
1100
0000
0001
0000
0000
0000
1010
0000
0001
0000
0110
0000
1000
0001
0010
0100
1001
0000
0100
0000
0000
0000
1001
0000
,
0010
0000
1100
0000
0001
0010
0100
1000
0101
0000
0010
0000
0000
0000
1100
0000
0010
0000
1001
0000
0010
0100
0001
1000
0110
0000
0001
0000
0000
0000
0011
0000
,
1000
0000
0110
0000
0010
0001
1000
0010
1100
0000
0001
0000
0000
0000
1010
0000
0100
0000
0011
0000
1000
0001
0010
0100
1010
0000
0001
0000
0000
0000
0110
0000
,
0110
0110
0000
0110
0000
0110
0001
2000
3101
0000
0000
0000
0000
0000
0000
0000
;
